myMPX
Advertisement


Go Back MyMPx.org > MyMPx.org Forum > Video related

shinco multimedia treasury RockchipRK2708B - only certain AVI/MP4 files play?
Reply
Post New Thread
 
Thread Tools
  #1  
Old 18th Nov 2011, 9:43 am
brio48 brio48 is offline
New Member
 
Join Date: Nov 2011
Posts: 2
Default shinco multimedia treasury RockchipRK2708B - only certain AVI/MP4 files play?


hi guys, can any one help me, got myself a shinco multimedia treasury

7" LCD TFT Touch 16:9 Screen with LED Backligth (480x234 Pixels)
RockchipRK2708B-M 266 MHz
4GB NAND Flash Memory
128 DDRAM
AV Output Jack
SD/MMC/Memory Stick Card Slot
USB 2.0 Port
3.5mm Headphone Jack
Built-in Stereo Speaker
Built-in Lithium Battery 3700mAh

it says it will allow all formats of video to be played yet only plays avi and some mp4 files,
can anyone know more about this player and can help me with any converter for this .
tks alot guys.
Reply With Quote
  #2  
Old 18th Nov 2011, 2:53 pm
Binh@MyMPx's Avatar
Binh@MyMPx Binh@MyMPx is offline
Administrator
Admin
 
Join Date: May 2009
Location: New Zealand
Posts: 483
Default

Hi Brio,

Does your player come with a sample video?
Can you upload some videos that do play?

Most likely. certain videos with certain frames per second or resolution will play on your player. Just need to find out what that is.
__________________
Thanks,
Binh (admin)

Reply With Quote
  #3  
Old 19th Nov 2011, 6:41 am
brio48 brio48 is offline
New Member
 
Join Date: Nov 2011
Posts: 2
Default

hi there, tks for ur kind help, the manual also says it supports rm/rmvb video format playback. supports mpeg/mpeg4/avi/wmv/dat/vob video format playback.
as the video file is too large i got the media info of the file, hope it helps.


eneral
Complete name : G:\春夏秋冬.avi
Format : AVI
Format/Info : Audio Video Interleave
File size : 149 MiB
Duration : 8mn 7s
Overall bit rate : 2 560 Kbps

Video
ID : 0
Format : MPEG-4 Visual
Format settings, BVOP : 1
Format settings, QPel : No
Format settings, GMC : No warppoints
Format settings, Matrix : Default (H.263)
Muxing mode : Packed bitstream
Codec ID : DX50
Codec ID/Hint : DivX 5
Duration : 8mn 7s
Bit rate : 2 420 Kbps
Width : 720 pixels
Height : 400 pixels
Display aspect ratio : 16:9
Frame rate : 29.970 fps
Color space : YUV
Chroma subsampling : 4:2:0
Bit depth : 8 bits
Scan type : Progressive
Compression mode : Lossy
Bits/(Pixel*Frame) : 0.280
Stream size : 141 MiB (95%)
Writing library : DivX 5.0.5 Kauehi (UTC 2003-07-02)

Audio
ID : 1
Format : MPEG Audio
Format version : Version 1
Format profile : Layer 3
Codec ID : 55
Codec ID/Hint : MP3
Duration : 8mn 7s
Bit rate mode : Constant
Bit rate : 128 Kbps
Channel(s) : 2 channels
Sampling rate : 44.1 KHz
Compression mode : Lossy
Stream size : 7.44 MiB (5%)
Alignment : Split accross interleaves
Interleave, duration : 33 ms (1.00 video frame)
Interleave, preload duration : 500 ms
Reply With Quote
Reply

Sponsored Links

Thread Tools


Similar Threads
Thread Thread Starter Forum Replies Last Post
Looking for firmware for portable multimedia player sohy Firmware 1 6th Sep 2008 4:11 am
Firmware for MP4 Multimedia player ( Fake Apple ipod) b4idie Mods and Themes 1 8th Mar 2008 7:25 am
SanDisk Sansa e280 8GB Digital Multimedia MP3 Player $69.99 Amigajoe Miscellaneous 1 23rd Nov 2007 1:28 pm
tool to back up Sunplus MultiMedia disk darkspark2134 Support and How To 6 29th Jul 2006 8:40 am


All times are GMT -7. The time now is 6:07 am.


Powered by vBulletin® Version 3.8.6
Copyright ©2000 - 2017, Jelsoft Enterprises Ltd.
Back to Top

Designed by indiqo.media